#TITLE:D.N.R.;
#SUBTITLE:(Do Not Resuscitate);
#ARTIST:Testament;
#TITLETRANSLIT:;
#SUBTITLETRANSLIT:;
#ARTISTTRANSLIT:;
#CREDIT:;
#BANNER:;
#BACKGROUND:;
#LYRICSPATH:;
#CDTITLE:;
#MUSIC:DNR (for DDR).mp3;
#MUSICLENGTH:108.538;
#OFFSET:0.100;
#SAMPLESTART:15.957;
#SAMPLELENGTH:12.000;
#SELECTABLE:YES;
#BPMS:0.000=377.999,116.000=373.400,172.000=378.000,244.000=373.400,308.000=378.000,340.000=371.000,452.000=378.000,548.000=373.400,612.000=378.000,644.000=371.000;
#STOPS:;
#BGCHANGES:;
#FIRSTBEAT:52.000;

#LASTBEAT:677.000;

#SONGFILENAME:Songs/ERICth The 3rd/D.N.R/DNR.sm;

#HASMUSIC:1;

#HASBANNER:0;


//---------------dance-single - Hard----------------
#NOTES:
     dance-single:
     Hard:
     hard:
     11:
     0.853,1.000,0.424,0.350,0.000,564.000,46.000,38.000,0.000,0.000:
0000
0000
0000
0000
,
0000
0000
0000
0000
,
0000
0000
0000
0000
,
0000
0000
0000
0000
,
0000
0000
0000
0000
,
0000
0000
0000
0000
,
0000
0000
0000
0000
,
0000
0000
0000
0000
,
0000
0000
0000
0000
,
0000
0000
0000
0000
,
0000
0000
0000
0000
,
0000
0000
0000
0000
,
0000
0000
0000
0000
,
1000
0100
1000
0100
,
1000
0010
1000
0100
,
1000
0100
1000
0100
,
0001
0100
1000
0100
,
1000
0100
1000
0100
,
0010
0100
1000
0100
,
1000
0100
1000
0100
,
0001
0000
0101
0000
,
0001
0100
0001
0100
,
0001
0010
0001
0100
,
0001
0100
0001
0100
,
1000
0100
0001
0100
,
0001
0100
0001
0100
,
0010
0100
0001
0100
,
0001
0100
0001
0100
,
1000
0000
1100
0000
,
1000
0100
1000
0100
1000
0100
1000
0100
,
1000
0100
1000
0100
1000
0100
1000
0100
,
1000
0100
1000
0100
1000
0100
1000
0100
,
1000
0100
1000
0100
1000
0100
1000
0000
,
0001
0100
0001
0100
0001
0100
0001
0100
,
0001
0100
0001
0100
0001
0100
0001
0100
,
0001
0100
0001
0100
0001
0100
0001
0100
,
0001
0100
0001
0100
0001
0100
0001
0000
,
1000
0100
1000
0100
1000
0100
0010
0100
,
1000
0100
0010
0100
1000
0100
0010
0100
,
1000
0100
1000
0100
0010
0100
1000
0100
,
1000
0100
1000
0100
0010
0100
1000
0000
,
0001
0100
0001
0100
0001
0100
0010
0100
,
0001
0100
0010
0100
0001
0100
0010
0000
,
0001
0100
0001
0100
0001
0000
0000
0000
,
1000
0100
1000
0100
1000
0000
0000
0000
,
1100
0000
0100
0000
,
0010
0001
0100
0001
,
0000
0000
0100
0000
,
0010
1000
0100
1000
,
0000
1000
0100
0000
,
0100
0001
0000
0010
,
0000
0010
0000
0010
,
0000
0001
0010
0000
,
0101
0000
0100
0000
,
0010
1000
0100
1000
,
0000
0000
0100
0000
,
0010
0001
0100
0001
,
0000
0010
0100
0000
,
0100
1000
0000
0010
,
0000
0010
0000
0010
,
0000
1000
0010
0000
,
1010
0000
0001
0010
,
0000
0011
0000
2020
,
0000
3030
0000
0000
0202
0000
0000
0000
,
0303
0000
1010
0000
,
1100
0000
0010
1000
,
0000
1010
0000
2200
,
0000
3300
0000
0000
0022
0000
0000
0000
,
0033
0000
1100
0000
,
0101
0000
1000
0100
,
0000
1100
0000
0202
,
0000
0303
0000
0000
2020
0000
0000
0000
,
3030
0000
0101
0000
,
0011
0000
0100
0001
,
0000
0101
0000
0022
,
0000
0033
0000
0000
2200
0000
0000
0000
,
3300
0000
0011
0000
,
1000
0100
1000
0100
,
1000
0010
1000
0100
,
1000
0100
1000
0100
,
0001
0100
1000
0100
,
1000
0100
1000
0100
,
0010
0100
1000
0100
,
1000
0100
1000
0100
,
0001
0000
0101
0000
,
1000
0000
0000
1000
,
0000
0000
1000
0000
,
0000
1000
0000
0000
,
1000
0000
0100
0000
,
0001
0000
0000
0001
,
0000
0000
0001
0000
,
0000
0001
0000
0000
,
0001
0000
0100
0000
,
1000
0100
1000
0100
1000
0100
1000
0100
,
1000
0100
1000
0100
1000
0100
1000
0100
,
1000
0100
1000
0100
1000
0100
1000
0100
,
1000
0100
1000
0100
1000
0000
0000
0000
,
0010
1000
0010
1000
0010
1000
0010
1000
,
0010
1000
0010
1000
0010
1000
0010
1000
,
0010
1000
0010
1000
0010
1000
0010
1000
,
0010
1000
0010
1000
0010
0000
0000
0000
,
0001
0010
0001
0010
0001
0010
0001
0010
,
0001
0010
0001
0010
0001
0010
0001
0010
,
0001
0010
0001
0010
0001
0010
0001
0010
,
0001
0010
0001
0010
0001
0000
0000
0000
,
0100
0001
0100
0001
0100
0001
0100
0001
,
0100
0001
0100
0001
0100
0001
0100
0001
,
0100
0001
0100
0001
0100
0001
0100
0001
,
0100
0001
0100
0001
0100
0000
0000
0000
,
1000
0001
1000
0001
1000
0001
1000
0001
,
1000
0001
1000
0001
1000
0001
1000
0001
,
1000
0001
1000
0001
1000
0001
1000
0001
,
1000
0001
1000
0001
1000
0001
1000
0000
,
2000
0000
0000
0000
,
3000
0000
0000
0000
,
0002
0000
0000
0000
,
0003
0000
0000
0000
,
2000
0000
0000
0000
,
3000
0000
0000
0000
,
0001
0100
1000
0000
,
1000
0100
0001
0000
,
2000
0000
0000
0000
,
3000
0000
0000
0000
,
0002
0000
0000
0000
,
0003
0000
0000
0000
,
2000
0000
0000
0000
,
3000
0000
0000
0000
,
0001
0010
1000
0000
,
1000
0010
0001
0000
,
0100
0001
0100
0001
,
0100
1000
0100
0001
,
0100
0001
0100
0001
,
0010
0001
0100
0001
,
0100
0001
0100
0001
,
1000
0001
0100
0001
,
0100
0001
0100
0001
,
0010
0000
0011
0000
,
0101
0000
1000
0100
,
0000
1100
0000
0202
,
0000
0303
0000
0000
2020
0000
0000
0000
,
3030
0000
0101
0000
,
0011
0000
0100
0001
,
0000
0101
0000
0022
,
0000
0033
0000
0000
2200
0000
0000
0000
,
3300
0000
0011
0000
,
1010
0000
0001
0010
,
0000
0011
0000
2020
,
0000
3030
0000
0000
0202
0000
0000
0000
,
0303
0000
1010
0000
,
1100
0000
0010
1000
,
0000
1010
0000
2200
,
0000
3300
0000
0000
0022
0000
0000
0000
,
0033
0000
1100
0000
,
1000
0100
0010
0100
,
0000
0001
0100
0000
,
0010
0001
0100
0001
,
0100
1000
0100
0000
,
1000
0100
0010
0100
,
0000
0001
0100
0000
,
0010
1000
0100
1000
,
0100
0001
0010
0000
,
0001
0010
0100
0010
,
0000
1000
0010
0000
,
0100
1000
0010
1000
,
0010
0001
0010
0000
,
0001
0010
0100
0010
,
0000
1000
0010
0000
,
0100
0001
0010
0001
,
0010
1000
0100
0000
,
0100
0000
0000
0000
;

//---------------dance-single - Easy----------------
#NOTES:
     dance-single:
     Easy:
     easy:
     1:
     0.809,0.702,0.000,0.000,0.000,615.000,0.000,0.000,0.000,0.000:
0000
0000
0000
0000
,
0000
0000
0000
0000
,
0000
0000
0000
0000
,
0000
0000
0000
0000
,
0000
0000
0000
0000
,
0000
0000
0000
0000
,
0000
0000
0000
0000
,
0000
0000
0000
0000
,
0000
0000
0000
0000
,
0000
0000
0000
0000
,
0000
0000
0000
0000
,
0000
0000
0000
0000
,
0000
0000
0000
0000
,
1000
1000
1000
1000
,
1000
1000
1000
1000
,
1000
1000
1000
1000
,
1000
1000
1000
1000
,
1000
1000
1000
1000
,
1000
1000
1000
1000
,
1000
1000
1000
1000
,
1000
1000
1000
1000
,
1000
1000
1000
1000
,
1000
1000
1000
1000
,
1000
1000
1000
1000
,
1000
1000
1000
1000
,
1000
1000
1000
1000
,
1000
1000
1000
1000
,
1000
1000
1000
1000
,
1000
1000
1000
1000
,
0000
1000
1000
1000
,
1000
1000
1000
1000
,
1000
1000
1000
1000
,
1000
1000
1000
1000
,
1000
1000
1000
1000
,
1000
1000
1000
1000
,
1000
1000
1000
1000
,
1000
1000
1000
1000
,
1000
1000
1000
1000
,
1000
1000
1000
1000
,
1000
1000
1000
1000
,
1000
1000
1000
1000
,
1000
1000
1000
1000
,
1000
1000
1000
1000
,
1000
1000
1000
1000
,
1000
1000
1000
1000
,
1000
1000
1000
1000
,
1000
1000
1000
1000
,
1000
1000
1000
1000
,
1000
1000
1000
1000
,
1000
1000
1000
1000
,
1000
1000
1000
1000
,
1000
1000
1000
1000
,
1000
1000
1000
1000
,
1000
1000
1000
1000
,
1000
1000
1000
1000
,
1000
1000
1000
1000
,
1000
1000
1000
1000
,
1000
1000
1000
1000
,
1000
1000
1000
1000
,
1000
1000
1000
1000
,
1000
1000
1000
1000
,
1000
1000
1000
1000
,
1000
1000
1000
1000
,
1000
1000
1000
1000
,
1000
1000
1000
1000
,
1000
1000
1000
1000
,
1000
1000
1000
1000
,
1000
1000
1000
1000
,
1000
1000
1000
1000
,
1000
1000
1000
1000
,
1000
1000
1000
1000
,
1000
1000
1000
1000
,
1000
1000
1000
1000
,
1000
1000
1000
1000
,
1000
1000
1000
1000
,
1000
1000
1000
1000
,
1000
1000
1000
1000
,
1000
1000
1000
1000
,
1000
1000
1000
1000
,
1000
1000
1000
1000
,
1000
1000
1000
1000
,
1000
1000
1000
1000
,
1000
1000
1000
1000
,
1000
1000
1000
1000
,
1000
1000
1000
1000
,
1000
1000
1000
1000
,
1000
1000
1000
1000
,
1000
1000
1000
1000
,
1000
1000
1000
1000
,
1000
1000
1000
1000
,
1000
1000
1000
1000
,
1000
1000
1000
1000
,
1000
1000
1000
1000
,
1000
1000
1000
1000
,
1000
1000
1000
1000
,
1000
1000
1000
1000
,
1000
1000
1000
1000
,
1000
1000
1000
1000
,
1000
1000
1000
1000
,
1000
1000
1000
1000
,
1000
1000
1000
1000
,
1000
1000
1000
1000
,
1000
1000
1000
1000
,
1000
1000
1000
1000
,
1000
1000
1000
1000
,
1000
1000
1000
1000
,
1000
1000
1000
1000
,
1000
1000
1000
1000
,
1000
1000
1000
1000
,
1000
1000
1000
1000
,
1000
1000
1000
1000
,
1000
1000
1000
1000
,
1000
1000
1000
1000
,
1000
1000
1000
1000
,
1000
1000
1000
1000
,
1000
1000
1000
1000
,
1000
1000
1000
1000
,
1000
1000
1000
1000
,
1000
1000
1000
1000
,
1000
1000
1000
1000
,
1000
1000
1000
1000
,
1000
1000
1000
1000
,
1000
1000
1000
1000
,
1000
1000
1000
1000
,
1000
1000
1000
1000
,
1000
1000
1000
1000
,
1000
1000
1000
1000
,
1000
1000
1000
1000
,
1000
1000
1000
1000
,
1000
1000
1000
1000
,
1000
1000
1000
1000
,
1000
1000
1000
1000
,
1000
1000
1000
1000
,
1000
1000
1000
1000
,
1000
1000
1000
1000
,
1000
1000
1000
1000
,
1000
1000
1000
1000
,
1000
1000
1000
1000
,
1000
1000
1000
1000
,
1000
1000
1000
1000
,
1000
1000
1000
1000
,
1000
1000
1000
1000
,
1000
1000
1000
1000
,
1000
1000
1000
1000
,
1000
1000
1000
1000
,
1000
1000
1000
1000
,
1000
1000
1000
1000
,
1000
1000
1000
1000
,
1000
1000
1000
1000
,
1000
1000
1000
1000
,
1000
1000
1000
1000
,
1000
1000
1000
1000
,
1000
1000
1000
1000
,
1000
1000
1000
1000
,
1000
1000
1000
1000
,
1000
1000
1000
1000
,
1000
1000
1000
1000
,
1000
1000
1000
1000
,
1000
1000
1000
1000
,
1000
1000
1000
1000
,
1000
1000
1000
1000
,
1000
1000
1000
1000
,
1000
1000
1000
1000
,
1000
1000
1000
1000
,
1000
1000
0000
1000
,
0000
1000
0000
1000
,
0000
1000
0000
1000
,
0000
1000
0000
1000
,
0000
1000
0000
1000
,
0000
1000
0000
0000
;
